انجمن‌های فارسی اوبونتو

لطفاً به انجمن‌ها وارد شده و یا جهت ورود ثبت‌نام نمائید

لطفاً جهت ورود نام کاربری و رمز عبورتان را وارد نمائید


 خبرها، اتفاقات و تصاویر مربوط به مربوط به جشن انتشار را با هشتگ ufest1804 در شبکه‌های اجتماعی دنبال کنید

نویسنده موضوع: مشکل با نرم افزار winff (حل شد)  (دفعات بازدید: 3467 بار)

0 کاربر و 1 مهمان درحال مشاهده موضوع.

آفلاین علیرضا.ج

  • High Sr. Member
  • *
  • ارسال: 585
  • جنسیت : پسر
  • گاهی سکوت همان دروغ است
مشکل با نرم افزار winff (حل شد)
« : 06 تیر 1391، 06:18 ب‌ظ »
سلام زمانی که یک فایل mkv رو میخوام avi تبدیل کنم و perest  رو هم روی ms compatible avi یا بقیه گزینه هاش میزارم  این ارور رو میده نمیدونم باید چیکار کنم
ffmpeg version 0.8.3-4:0.8.3-0ubuntu0.12.04.1, Copyright (c) 2000-2012 the Libav developers
  built on Jun 12 2012 16:37:58 with gcc 4.6.3
*** THIS PROGRAM IS DEPRECATED ***
This program is only provided for compatibility and will be removed in a future release. Please use avconv instead.
[matroska,webm @ 0x9c39100] Unknown entry 0xC6
[matroska,webm @ 0x9c39100] Unknown entry 0xEA
[matroska,webm @ 0x9c39100] Unknown entry 0xC6
[matroska,webm @ 0x9c39100] Unknown entry 0xEA
[matroska,webm @ 0x9c39100] Unknown entry 0x2AD1D3
[matroska,webm @ 0x9c39100] Estimating duration from bitrate, this may be inaccurate
Input #0, matroska,webm, from '/home/alireza/Videos/a team/The A-Team 2010 R5 LINE XviD-PrisM.mkv':
  Duration: 01:53:50.44, start: 0.000000, bitrate: 128 kb/s
    Stream #0.0(eng): Video: h264 (High), yuvj420p, 720x304 [PAR 1:1 DAR 45:19], 25 fps, 25 tbr, 1k tbn, 50 tbc (default)
    Stream #0.1(eng): Audio: mp3, 48000 Hz, stereo, s16, 128 kb/s (default)
Unknown encoder 'libmp3lame'
Press Enter to Continue
« آخرین ویرایش: 09 تیر 1391، 08:14 ق‌ظ توسط baztabroh »

آفلاین آیدین

  • Hero Member
  • *
  • ارسال: 733
  • جنسیت : پسر
  • Die it such FRIENDLY word for me
پاسخ : مشکل با نرم افزار winff
« پاسخ #1 : 06 تیر 1391، 06:31 ب‌ظ »
این مشکل زمانی به وجود میاد که فایل های کتاب خانه این یا lib ها رو نداشته باشه
باید تمام این lib ها رو براش نصب کنی تا بتونه برات encode کنه

این فایل libmp3lame رو نصب کن بعد دوباره پروسه کارتو انجام بده
من از سرزمین آه آمده ام! سرزمین اندوه های بسیار! از جایی که هیچگاه نخندیده ام!!
من زاده ی‌ سرزمین آه هستم. من از سرزمین شرم آمدم،
از سرزمین حیا‌های بی‌ خاصیت، سرزمین قایم شدن‌های پر قیمت،
من از سرزمین حصار‌های بی‌ منفعت آمده ام !! من از سرزمین پنهان شدن آمده ام
من به رسم آهیان ، همچنان می‌‌آیم!!

آفلاین علیرضا.ج

  • High Sr. Member
  • *
  • ارسال: 585
  • جنسیت : پسر
  • گاهی سکوت همان دروغ است
پاسخ : مشکل با نرم افزار winff
« پاسخ #2 : 07 تیر 1391، 01:07 ب‌ظ »
این مشکل زمانی به وجود میاد که فایل های کتاب خانه این یا lib ها رو نداشته باشه
باید تمام این lib ها رو براش نصب کنی تا بتونه برات encode کنه

این فایل libmp3lame رو نصب کن بعد دوباره پروسه کارتو انجام بده
چطوری نصبش کنم اگر توضیح بدین ممنون میشم

آفلاین doomhammer65ir

  • High Hero Member
  • *
  • ارسال: 1572
  • جنسیت : پسر
    • IRAN Backup
پاسخ : مشکل با نرم افزار winff
« پاسخ #3 : 07 تیر 1391، 01:11 ب‌ظ »
sudo apt-get install libmp3enter نزنید . به جاش دو بار tab بفشارید خودش پیشنهاد نصب میدهد

آفلاین نوید امامی

  • Jr. Member
  • *
  • ارسال: 42
  • جنسیت : پسر
پاسخ : مشکل با نرم افزار winff
« پاسخ #4 : 07 تیر 1391، 08:39 ب‌ظ »
WinFF چند وقتی میشه که به صورت رسمی پشتیبانی و به روز رسانی نمیشه،َ بهتره که از دستورات مستقیم خود ffmpeg استفاده کنی. یه راهنمای خوب و کوتاه راجع به تبدیل فایل های mkv به avi تو سایت superuser پیدا کردم که فکر کنم به دردت بخوره.
آزادی == نرم افزار آزاد == گنو/لینوکس

آفلاین علیرضا.ج

  • High Sr. Member
  • *
  • ارسال: 585
  • جنسیت : پسر
  • گاهی سکوت همان دروغ است
پاسخ : مشکل با نرم افزار winff
« پاسخ #5 : 07 تیر 1391، 09:49 ب‌ظ »
sudo apt-get install libmp3enter نزنید . به جاش دو بار tab بفشارید خودش پیشنهاد نصب میدهد
انجام دادم و بازم با این ارور روبرو شدم
ffmpeg version 0.8.3-4:0.8.3-0ubuntu0.12.04.1, Copyright (c) 2000-2012 the Libav developers
  built on Jun 12 2012 16:37:58 with gcc 4.6.3
*** THIS PROGRAM IS DEPRECATED ***
This program is only provided for compatibility and will be removed in a future release. Please use avconv instead.
[matroska,webm @ 0x8900100] Unknown entry 0xC6
[matroska,webm @ 0x8900100] Unknown entry 0xEA
[matroska,webm @ 0x8900100] Unknown entry 0xC6
[matroska,webm @ 0x8900100] Unknown entry 0xEA
[matroska,webm @ 0x8900100] Unknown entry 0x2AD1D3
[matroska,webm @ 0x8900100] Estimating duration from bitrate, this may be inaccurate
Input #0, matroska,webm, from '/home/alireza/Videos/a team/The A-Team 2010 R5 LINE XviD-PrisM.mkv':
  Duration: 01:53:50.44, start: 0.000000, bitrate: 128 kb/s
    Stream #0.0(eng): Video: h264 (High), yuvj420p, 720x304 [PAR 1:1 DAR 45:19], 25 fps, 25 tbr, 1k tbn, 50 tbc (default)
    Stream #0.1(eng): Audio: mp3, 48000 Hz, stereo, s16, 128 kb/s (default)
Unknown encoder 'libxvid'
Press Enter to Continue
من فکر کنم فایلی که لازم داره باید همچین چیزی باشه libxvid

آفلاین علیرضا.ج

  • High Sr. Member
  • *
  • ارسال: 585
  • جنسیت : پسر
  • گاهی سکوت همان دروغ است
پاسخ : مشکل با نرم افزار winff
« پاسخ #6 : 07 تیر 1391، 09:50 ب‌ظ »
WinFF چند وقتی میشه که به صورت رسمی پشتیبانی و به روز رسانی نمیشه،َ بهتره که از دستورات مستقیم خود ffmpeg استفاده کنی. یه راهنمای خوب و کوتاه راجع به تبدیل فایل های mkv به avi تو سایت superuser پیدا کردم که فکر کنم به دردت بخوره.
عزیز یک سوال خیلی ابتدایی اگر بخواهیم توی درایو و یا پوشه ای که هستیم ترمینال رو باز میکنیم اونجا باشه باید چیکار کنم ممنون میشم به من بگین

آفلاین آیدین

  • Hero Member
  • *
  • ارسال: 733
  • جنسیت : پسر
  • Die it such FRIENDLY word for me
پاسخ : مشکل با نرم افزار winff
« پاسخ #7 : 07 تیر 1391، 10:03 ب‌ظ »
WinFF چند وقتی میشه که به صورت رسمی پشتیبانی و به روز رسانی نمیشه،َ بهتره که از دستورات مستقیم خود ffmpeg استفاده کنی. یه راهنمای خوب و کوتاه راجع به تبدیل فایل های mkv به avi تو سایت superuser پیدا کردم که فکر کنم به دردت بخوره.
عزیز یک سوال خیلی ابتدایی اگر بخواهیم توی درایو و یا پوشه ای که هستیم ترمینال رو باز میکنیم اونجا باشه باید چیکار کنم ممنون میشم به من بگین
اگر KDE داری سوالت مبتدی بود تووی هر پوشه هستی F4 رو بزنی ترمینال همونجا باز میشه اما اگر اوبونتو داری زیاد هم مبتدی نبود :دی   باید nautilus terminal رو نصب کنی بدین صورت :
sudo add-apt-repository ppa:flozz/flozz
sudo apt-get update
sudo apt-get install nautilus-terminal
nautilus -q

یا :

sudo apt-get install nautilus-open-terminalبعد که این رو نصب کردی gconf editor رو باز کن و بعد برو به این آدرس " /desktop/gnome/interface/ "
بعد این رو " can_change_accels " به true تغییر بده بعد ناتیلوس رو ری استارت کن :
nautilus -q
بعد از این کار روی فایلت کلیک-راست کن و open in terminal رو انتخاب کن
من از سرزمین آه آمده ام! سرزمین اندوه های بسیار! از جایی که هیچگاه نخندیده ام!!
من زاده ی‌ سرزمین آه هستم. من از سرزمین شرم آمدم،
از سرزمین حیا‌های بی‌ خاصیت، سرزمین قایم شدن‌های پر قیمت،
من از سرزمین حصار‌های بی‌ منفعت آمده ام !! من از سرزمین پنهان شدن آمده ام
من به رسم آهیان ، همچنان می‌‌آیم!!

آفلاین علیرضا.ج

  • High Sr. Member
  • *
  • ارسال: 585
  • جنسیت : پسر
  • گاهی سکوت همان دروغ است
پاسخ : مشکل با نرم افزار winff
« پاسخ #8 : 08 تیر 1391، 09:54 ق‌ظ »
WinFF چند وقتی میشه که به صورت رسمی پشتیبانی و به روز رسانی نمیشه،َ بهتره که از دستورات مستقیم خود ffmpeg استفاده کنی. یه راهنمای خوب و کوتاه راجع به تبدیل فایل های mkv به avi تو سایت superuser پیدا کردم که فکر کنم به دردت بخوره.
عزیز یک سوال خیلی ابتدایی اگر بخواهیم توی درایو و یا پوشه ای که هستیم ترمینال رو باز میکنیم اونجا باشه باید چیکار کنم ممنون میشم به من بگین
اگر KDE داری سوالت مبتدی بود تووی هر پوشه هستی F4 رو بزنی ترمینال همونجا باز میشه اما اگر اوبونتو داری زیاد هم مبتدی نبود :دی   باید nautilus terminal رو نصب کنی بدین صورت :
sudo add-apt-repository ppa:flozz/flozz
sudo apt-get update
sudo apt-get install nautilus-terminal
nautilus -q

یا :

sudo apt-get install nautilus-open-terminalبعد که این رو نصب کردی gconf editor رو باز کن و بعد برو به این آدرس " /desktop/gnome/interface/ "
بعد این رو " can_change_accels " به true تغییر بده بعد ناتیلوس رو ری استارت کن :
nautilus -q
بعد از این کار روی فایلت کلیک-راست کن و open in terminal رو انتخاب کن
اره ابونتو هستم ممنون در مورد ارور کانورت چیکار کنم

آفلاین علیرضا.ج

  • High Sr. Member
  • *
  • ارسال: 585
  • جنسیت : پسر
  • گاهی سکوت همان دروغ است
پاسخ : مشکل با نرم افزار winff
« پاسخ #9 : 09 تیر 1391، 08:13 ق‌ظ »
نقل‌قول
اگر KDE داری سوالت مبتدی بود تووی هر پوشه هستی F4 رو بزنی ترمینال همونجا باز میشه اما اگر اوبونتو داری زیاد هم مبتدی نبود :دی   باید nautilus terminal رو نصب کنی بدین صورت :
sudo add-apt-repository ppa:flozz/flozz
sudo apt-get update
sudo apt-get install nautilus-terminal
nautilus -q

یا :

sudo apt-get install nautilus-open-terminalبعد که این رو نصب کردی gconf editor رو باز کن و بعد برو به این آدرس " /desktop/gnome/interface/ "
بعد این رو " can_change_accels " به true تغییر بده بعد ناتیلوس رو ری استارت کن :
nautilus -q
بعد از این کار روی فایلت کلیک-راست کن و open in terminal رو انتخاب کن
طی انجامش روش اول اصلا کار نمیکنه روش دوم هم نیاز نیست از طریق ادیتور دنبال فایلی بگردیم چون نیست و خودش فعاله
برای راحتی کار من به صورت کامل در اینجا توضیحش دادم
http://jahanifard.mihanblog.com/post/12

آفلاین علیرضا.ج

  • High Sr. Member
  • *
  • ارسال: 585
  • جنسیت : پسر
  • گاهی سکوت همان دروغ است
پاسخ : مشکل با نرم افزار winff
« پاسخ #10 : 09 تیر 1391، 08:58 ق‌ظ »
WinFF چند وقتی میشه که به صورت رسمی پشتیبانی و به روز رسانی نمیشه،َ بهتره که از دستورات مستقیم خود ffmpeg استفاده کنی. یه راهنمای خوب و کوتاه راجع به تبدیل فایل های mkv به avi تو سایت superuser پیدا کردم که فکر کنم به دردت بخوره.
برای تبدیل از طریق ترمینال به صورت کاملا تشریحی به این آدرس مراجعه کنید
http://jahanifard.mihanblog.com/post/13